#TITLE:Fighter;
#SUBTITLE:;
#ARTIST:Lee Min Woo;
#TITLETRANSLIT:Fighter;
#SUBTITLETRANSLIT:;
#ARTISTTRANSLIT:Lee Min Woo;
#CREDIT:;
#BANNER:Fighter-bn.png;
#BACKGROUND:Fighter-bg.png;
#LYRICSPATH:;
#CDTITLE:pm4cd.png;
#MUSIC:Fighter.mp3;
#OFFSET:-0.020;
#SAMPLESTART:60.477;
#SAMPLELENGTH:20.000;
#SELECTABLE:YES;
#BPMS:0.000=105.010,53.750=52.510,55.750=105.010,99.750=52.510,101.750=105.010,145.750=52.510,147.750=105.010,159.750=52.510,161.750=105.010,162.750=52.510,164.250=105.010,224.250=52.510,226.250=105.010,286.250=52.510,288.250=105.030,380.250=52.510,382.250=210.011,414.750=105.010;
#STOPS:;
#BGCHANGES:;
// cache tags:
#FIRSTBEAT:9.750;
#LASTBEAT:432.750;
#SONGFILENAME:Songs/Music V.I.P ^_^/Fighter/Fighter.sm;
#HASMUSIC:1;
#HASBANNER:1;
#MUSICLENGTH:247.928;
// end cache tags

//---------------dance-single - ----------------
#NOTES:
     dance-single:
     :
     Hard:
     9:
     0.657,0.698,1.000,0.157,1.000,701.000,381.000,39.000,0.000,143.000:
0000
0000
0000
0000
,
0000
0000
0000
0000
,
0000
0000
0000
0000
0000
0000
0000
1010
0000
1000
0100
0011
0000
0001
0010
0100
,
0000
0001
0000
0101
0000
0000
0000
1100
0000
0010
0010
0101
0000
1000
0100
0010
,
0000
0010
0000
0011
0000
0000
0000
0101
0000
0010
0000
0100
0000
1000
0100
0010
,
0000
0001
0000
0110
0000
0000
0000
0011
0000
0010
0000
1100
0000
0100
0000
1001
,
0000
1001
0000
1001
0000
0000
0000
1100
0000
0010
0000
0100
0000
0001
0010
0100
,
0000
0010
0000
0011
0000
0000
0000
0101
0000
0010
0000
0100
0000
1000
0100
0010
,
0000
0010
0000
0110
0000
0000
0000
0101
0000
1000
0000
0100
0000
0001
0010
0100
,
0000
0100
0000
1010
0000
0000
0000
0101
0000
0010
0000
1010
0000
0100
0000
1010
,
0000
1010
0000
1010
0000
0101
0000
0110
0000
0000
0000
0101
0000
0000
0000
0000
,
0000
1100
0000
1010
0000
0000
0000
0011
0000
0000
0000
0101
0000
0000
0000
0000
,
0000
0110
0000
1001
0000
0000
0000
0011
0000
0000
0000
0101
0000
0000
0000
0000
,
0000
1100
0000
1010
0000
0000
0000
0200
0000
0000
0000
0000
0000
0000
0000
0311
,
0000
0000
0000
0101
0000
0010
0001
0000
0000
1100
0000
1010
0000
0000
0000
0011
,
0000
0000
0000
0101
0000
0010
0100
0000
0000
1100
0000
1010
0000
0000
0000
0011
,
0000
0000
0000
1010
0000
0000
0000
1000
0000
0100
0000
0010
0000
0002
0000
1100
,
0000
1000
0000
1100
0000
1000
0000
1100
0000
1100
0000
1010
0000
0000
0000
0113
,
0000
0000
0000
1010
0000
0000
0000
0010
0000
0010
0000
1001
0000
0000
0000
0110
,
0000
0000
0000
0101
0000
0000
0000
0100
0000
0100
0000
1010
0000
0000
0000
0011
,
0000
0000
0000
0101
0000
0000
0000
0010
0000
0010
0000
1010
0000
0100
0000
0110
,
0000
1000
0000
0101
0000
1000
0000
0010
0000
0010
0000
0101
0000
0010
0000
0020
,
0000
0000
0000
0101
0000
0000
0000
0130
0000
0100
0000
1010
0000
0100
0000
0200
,
0000
0000
0000
1010
0000
0000
0000
0310
0000
0010
0000
0101
0000
0010
0000
0101
,
0000
0010
0000
1010
0000
0100
0000
1001
0000
1001
0000
0110
0000
1001
0000
1002
,
0000
1000
0000
1000
0000
1000
0000
0113
0000
0000
0000
1010
0000
0100
0010
0001
,
0000
0010
0000
0101
0000
0000
0000
0011
0000
0001
0000
1010
0000
0001
0010
0100
,
0000
0100
0000
1010
0000
0000
0000
0101
0000
0010
0000
1010
0000
0001
0010
0100
,
0000
0110
0000
1001
0000
0000
0000
1102
0000
0100
0000
1100
0000
0100
0000
1010
,
0000
1010
0000
0200
0000
0000
0000
1003
0000
0000
0000
0311
0000
0010
0100
1000
,
0000
0100
0000
1010
0000
0000
0000
0110
0000
0010
0000
0101
0000
1000
0100
0010
,
0000
0010
0000
0101
0000
0000
0000
0110
0000
0010
0000
0101
0000
1000
0100
0010
,
0000
0100
0000
0101
0000
0000
0000
0110
0000
0100
0000
1100
0000
0100
0000
0011
,
0000
0011
0000
0101
0000
0000
0000
1010
0000
0001
0000
0010
0000
0100
0000
1000
,
0000
0100
0000
0011
0000
0000
0000
0101
0000
1000
0000
0100
0000
0010
0000
0001
,
0000
0010
0000
1100
0000
0000
0000
1001
0000
0100
0000
0010
0000
0001
0000
0010
,
0000
0100
0000
1100
0000
0000
0000
0121
0100
1100
1000
0101
0101
1100
0000
1031
,
0000
0010
0000
0100
0000
1000
0000
0100
0000
0010
0000
0011
0000
0000
0000
1100
,
0000
0010
0000
0001
0000
0010
0000
0100
0000
1000
0000
0101
0000
0000
0000
0011
,
0000
0100
0000
1000
0000
0100
0000
0010
0000
0001
0000
1010
0000
0000
0000
0201
,
0010
0011
0001
1010
1010
0011
0000
1300
0000
0100
0000
0200
0000
0000
0000
0300
,
0000
1111
0000
0000
0000
1010
0000
0010
0000
0100
0000
1001
0000
0110
0000
1100
,
0000
0011
0000
0000
0000
1010
0000
0100
0000
0010
0000
1001
0000
0110
0000
0011
,
0000
1110
0000
0000
0000
0110
0000
1000
0000
0010
0000
0011
0000
1001
0000
0110
,
0000
2010
0000
0010
0000
0011
0000
0001
0000
0110
0000
0110
0000
0101
0000
0000
,
0000
3011
0000
0000
0000
1100
0000
0001
0000
0010
0000
0110
0000
1001
0000
1010
,
0000
1100
0000
0000
0000
0011
0000
1000
0000
0100
0000
1001
0000
1010
0000
1100
,
0000
0111
0000
0000
0000
1001
0000
0010
0000
0100
0000
0011
0000
0110
0000
1010
,
0000
0102
0000
0100
0000
1100
0000
1000
0000
0110
0000
0110
0000
1010
0000
0000
,
0000
1203
0000
0000
0000
0011
0000
0000
0000
0000
0000
1001
0000
1010
0000
0000
,
0000
0312
0000
0000
0000
1100
0000
0000
0000
0000
0000
1010
0000
1100
0000
0000
,
0000
1023
0000
0000
0000
1001
0000
0000
0000
0000
0000
0101
0000
1100
0000
0000
,
0000
1031
0000
0010
0000
0100
0000
0010
0000
0001
0000
0010
0000
0100
0000
1000
,
0000
0210
0000
0000
0000
0011
0000
0000
0000
0000
0000
1001
0000
0011
0000
0000
,
0000
1320
0000
0000
0000
1100
0000
0000
0000
0000
0000
1001
0000
0101
0000
0000
,
0000
2031
0000
0000
0000
0110
0000
0000
0000
0000
0000
0101
0000
0011
0000
0000
,
0000
3201
0001
0011
0010
1001
1001
1010
0000
0311
0000
0000
0000
0011
0000
0010
,
0100
1000
0000
0100
0000
1010
0000
0000
0000
0110
0000
0010
0000
0101
0000
1000
,
0100
0010
0000
0010
0000
0101
0000
0000
0000
0110
0000
0010
0000
0101
0000
1000
,
0100
0010
0000
0100
0000
0101
0000
0000
0000
0110
0000
0100
0000
1100
0000
0100
,
0000
0011
0000
0011
0000
0101
0000
0000
0000
0110
0000
0010
0000
1001
0000
0001
,
0010
0100
0000
0100
0000
1010
0000
0000
0000
0110
0000
0010
0000
1001
0000
1000
,
0100
0010
0000
0010
0000
0101
0000
0000
0000
0111
0000
0010
0000
0101
0000
1000
,
0100
0010
0000
0010
0000
0101
0000
0000
0000
0211
0000
0001
0000
0011
0000
0010
,
0000
1001
0000
1001
0000
1010
0000
0000
0000
0311
0000
0000
0000
0110
0000
0001
,
0000
0010
0000
1100
0000
0011
0000
1010
0000
0101
0000
0000
0000
1100
0000
0001
,
0000
0010
0000
0101
0000
1010
0000
0110
0000
1011
0000
0000
0000
1001
0000
0010
,
0000
0100
0000
0011
0000
0110
0000
1100
0000
1001
0000
0001
0000
0011
0000
0010
,
0000
1001
0000
1001
0000
0101
0000
0000
0000
1110
0000
0000
0000
0011
0000
0100
,
0000
1000
0000
0101
0000
0011
0000
0110
0000
1001
0000
0000
0000
1010
0000
0010
,
0000
0001
0000
0011
0000
1100
0000
1001
0000
0111
0000
0000
0000
1001
0000
0010
,
0000
0001
0000
1010
0000
0110
0000
0101
0000
2001
0010
0011
0100
0101
0101
0110
,
0000
3012
0000
0000
0000
1100
0000
0000
0000
0000
0000
1010
0000
0110
0000
0000
,
0000
2013
0000
0000
0000
0101
0000
0000
0000
0000
0000
0011
0000
0110
0000
0000
,
0000
3021
0000
0000
0000
1100
0000
0000
0000
0000
0000
1001
0000
0101
0000
0000
,
0000
1230
0000
0000
0000
1001
0000
0000
0000
0000
0000
0011
0000
1010
0000
0000
,
0000
0312
0000
0000
0000
1010
0000
0000
0000
0000
0000
1100
0000
0110
0000
0000
,
0000
1023
0000
0000
0000
0101
0000
0000
0000
0000
0000
1001
0000
1100
0000
0000
,
0000
1230
0000
0000
0000
0011
0000
0000
0000
0000
0000
1001
0000
0011
0000
0000
,
0000
0321
0000
0000
1001
0000
0000
1001
0000
0000
0000
0101
0000
0000
0000
1100
,
0000
1131
0000
0000
0000
0011
0000
1000
0100
0010
0000
0001
0000
0101
0000
0000
,
0000
1100
0000
0100
0000
0101
0000
0010
0100
1000
0000
0100
0000
0011
0000
0000
,
0000
1011
0000
0100
0000
1010
0000
0100
0010
0001
0000
1000
0000
1001
0000
0000
,
0000
1102
0000
0100
0000
1100
0000
1000
0000
1010
0000
1010
0000
0110
0000
0000
,
0000
1113
0000
0000
0000
1001
0000
0001
0010
0100
0000
0010
0000
1100
0000
0000
,
0000
0101
0000
0010
0000
1001
0000
1000
0100
0010
0000
0001
0000
0101
0000
0000
,
0000
1010
0000
0001
0000
0110
0000
0100
0010
0001
0000
0010
0000
1100
0000
0000
,
0000
1021
0000
0100
0000
0101
0000
0001
0000
1100
0000
1100
0000
1001
0000
0000
,
0000
1131
0000
0000
0000
0011
0000
1000
0100
0010
0000
1000
0000
0110
0000
0000
,
0000
0011
0000
0010
0000
1010
0000
0100
0010
0001
0000
0010
0000
1100
0000
0000
,
0000
1001
0000
0010
0000
1010
0000
0001
0010
0100
0000
0001
0000
1010
0000
0000
,
0000
1201
0000
0001
0000
1010
0000
1000
0000
0011
0000
0011
0000
1010
0000
0000
,
0000
1311
0000
0000
0000
1100
0000
0010
0100
1000
0000
1000
0000
1010
0000
0000
,
0000
0101
0000
0010
0000
1001
0000
0100
0010
0001
0000
0001
0000
0011
0000
0000
,
0000
0110
0000
0100
0000
1001
0000
1000
0100
0010
0000
0001
0000
0110
0000
0000
,
0000
1102
0100
1100
0100
1100
1100
1010
0000
1103
0000
0000
0000
0100
0000
0000
,
0000
1010
0000
0000
0000
0001
0000
0010
0000
0100
0000
0000
0000
0100
0000
0000
,
0000
1001
0000
0000
0000
0010
0000
0000
0000
0011
0000
0000
0000
0010
0000
0000
,
0000
0101
0000
0000
0000
1000
0000
0100
0000
0010
0000
0000
0000
0010
0000
0000
,
0000
1001
0000
0000
0000
0010
0000
0000
0000
0110
0000
0000
0000
0100
0000
0000
,
0000
1001
0000
0000
0000
0010
0000
0100
0000
1000
0000
0000
0000
0110
0000
0000
,
0000
1001
0000
0000
0000
0010
0000
0000
0000
0011
0000
0000
0000
0001
0000
0000
,
0000
1100
0000
0000
0000
0100
0000
0000
0000
0110
0000
0000
0000
0110
0000
0000
,
0000
2002
0000
0000
0000
0000
0000
0000
0000
0000
0000
3113
0000
0010
0000
0101
,
0000
0010
0100
1000
0000
0100
0000
1010
0000
0000
0000
0110
0000
0010
0000
0101
,
0000
1000
0100
0010
0000
0010
0000
0101
0000
0000
0000
0110
0000
0010
0000
0101
,
0000
1000
0100
0010
0000
0100
0000
0101
0000
0000
0000
0110
0000
0100
0000
0110
,
0000
0010
0000
0110
0000
0110
0000
2002
0000
0000
0000
0220
0000
0000
0000
0000
,
0000
0000
0000
3333
0000
0000
0000
0000
0000
0000
0000
0000
0000
0000
0000
0000
;
